  0
SECTION
  2
HEADER
  9
$ACADVER
  1
AC1015
  9
$ACADMAINTVER
 70
    10
  9
$DWGCODEPAGE
  3
ANSI_1252
  9
$INSBASE
 10
-0.1400594516755831
 20
-0.2575442482252344
 30
0.0
  9
$EXTMIN
 10
-270.042111687313
 20
-125.0112527674922
 30
-0.0000000349181948
  9
$EXTMAX
 10
339.5277278410585
 20
222.7956202488817
 30
0.0000000814935746
  9
$LIMMIN
 10
0.0
 20
0.0
  9
$LIMMAX
 10
420.0
 20
297.0
  9
$ORTHOMODE
 70
     1
  9
$REGENMODE
 70
     1
  9
$FILLMODE
 70
     1
  9
$QTEXTMODE
 70
     0
  9
$MIRRTEXT
 70
     1
  9
$LTSCALE
 40
0.25
  9
$ATTMODE
 70
     1
  9
$TEXTSIZE
 40
5.0
  9
$TRACEWID
 40
10.0
  9
$TEXTSTYLE
  7
ROMANS
  9
$CLAYER
  8
ANCON-TEXT
  9
$CELTYPE
  6
ByLayer
  9
$CECOLOR
 62
   256
  9
$CELTSCALE
 40
1.0
  9
$DISPSILH
 70
     0
  9
$DIMSCALE
 40
0.0
  9
$DIMASZ
 40
4.0
  9
$DIMEXO
 40
3.0
  9
$DIMDLI
 40
10.0
  9
$DIMRND
 40
0.0
  9
$DIMDLE
 40
1.25
  9
$DIMEXE
 40
3.0
  9
$DIMTP
 40
0.0
  9
$DIMTM
 40
0.0
  9
$DIMTXT
 40
3.0
  9
$DIMCEN
 40
-3.0
  9
$DIMTSZ
 40
0.0
  9
$DIMTOL
 70
     0
  9
$DIMLIM
 70
     0
  9
$DIMTIH
 70
     0
  9
$DIMTOH
 70
     0
  9
$DIMSE1
 70
     0
  9
$DIMSE2
 70
     0
  9
$DIMTAD
 70
     1
  9
$DIMZIN
 70
    12
  9
$DIMBLK
  1

  9
$DIMASO
 70
     1
  9
$DIMSHO
 70
     0
  9
$DIMPOST
  1

  9
$DIMAPOST
  1

  9
$DIMALT
 70
     0
  9
$DIMALTD
 70
     2
  9
$DIMALTF
 40
0.04
  9
$DIMLFAC
 40
1.0
  9
$DIMTOFL
 70
     0
  9
$DIMTVP
 40
0.0
  9
$DIMTIX
 70
     0
  9
$DIMSOXD
 70
     0
  9
$DIMSAH
 70
     0
  9
$DIMBLK1
  1

  9
$DIMBLK2
  1

  9
$DIMSTYLE
  2
1-2
  9
$DIMCLRD
 70
     0
  9
$DIMCLRE
 70
     0
  9
$DIMCLRT
 70
     0
  9
$DIMTFAC
 40
0.75
  9
$DIMGAP
 40
1.5
  9
$DIMJUST
 70
     0
  9
$DIMSD1
 70
     0
  9
$DIMSD2
 70
     0
  9
$DIMTOLJ
 70
     1
  9
$DIMTZIN
 70
    12
  9
$DIMALTZ
 70
    12
  9
$DIMALTTZ
 70
    12
  9
$DIMUPT
 70
     0
  9
$DIMDEC
 70
     2
  9
$DIMTDEC
 70
     2
  9
$DIMALTU
 70
     2
  9
$DIMALTTD
 70
     2
  9
$DIMTXSTY
  7
STANDARD
  9
$DIMAUNIT
 70
     0
  9
$DIMADEC
 70
     0
  9
$DIMALTRND
 40
0.0
  9
$DIMAZIN
 70
     0
  9
$DIMDSEP
 70
    46
  9
$DIMATFIT
 70
     3
  9
$DIMFRAC
 70
     0
  9
$DIMLDRBLK
  1

  9
$DIMLUNIT
 70
     2
  9
$DIMLWD
 70
    -2
  9
$DIMLWE
 70
    -2
  9
$DIMTMOVE
 70
     2
  9
$LUNITS
 70
     2
  9
$LUPREC
 70
     2
  9
$SKETCHINC
 40
1.0
  9
$FILLETRAD
 40
0.0
  9
$AUNITS
 70
     0
  9
$AUPREC
 70
     4
  9
$MENU
  1
acad
  9
$ELEVATION
 40
0.0
  9
$PELEVATION
 40
0.0
  9
$THICKNESS
 40
0.0
  9
$LIMCHECK
 70
     0
  9
$CHAMFERA
 40
0.0
  9
$CHAMFERB
 40
0.0
  9
$CHAMFERC
 40
0.0
  9
$CHAMFERD
 40
0.0
  9
$SKPOLY
 70
     0
  9
$TDCREATE
 40
2450011.476045023
  9
$TDUCREATE
 40
2450011.434378356
  9
$TDUPDATE
 40
2452498.578288426
  9
$TDUUPDATE
 40
2452498.536621759
  9
$TDINDWG
 40
0.0303660648
  9
$TDUSRTIMER
 40
0.0303660648
  9
$USRTIMER
 70
     1
  9
$ANGBASE
 50
0.0
  9
$ANGDIR
 70
     0
  9
$PDMODE
 70
     0
  9
$PDSIZE
 40
0.0
  9
$PLINEWID
 40
0.0
  9
$SPLFRAME
 70
     0
  9
$SPLINETYPE
 70
     6
  9
$SPLINESEGS
 70
     8
  9
$HANDSEED
  5
1C3
  9
$SURFTAB1
 70
    18
  9
$SURFTAB2
 70
    18
  9
$SURFTYPE
 70
     6
  9
$SURFU
 70
    18
  9
$SURFV
 70
    18
  9
$UCSBASE
  2

  9
$UCSNAME
  2

  9
$UCSORG
 10
0.0
 20
0.0
 30
0.0
  9
$UCSXDIR
 10
1.0
 20
0.0
 30
0.0
  9
$UCSYDIR
 10
0.0
 20
1.0
 30
0.0
  9
$UCSORTHOREF
  2

  9
$UCSORTHOVIEW
 70
     0
  9
$UCSORGTOP
 10
0.0
 20
0.0
 30
0.0
  9
$UCSORGBOTTOM
 10
0.0
 20
0.0
 30
0.0
  9
$UCSORGLEFT
 10
0.0
 20
0.0
 30
0.0
  9
$UCSORGRIGHT
 10
0.0
 20
0.0
 30
0.0
  9
$UCSORGFRONT
 10
0.0
 20
0.0
 30
0.0
  9
$UCSORGBACK
 10
0.0
 20
0.0
 30
0.0
  9
$PUCSBASE
  2

  9
$PUCSNAME
  2

  9
$PUCSORG
 10
0.0
 20
0.0
 30
0.0
  9
$PUCSXDIR
 10
1.0
 20
0.0
 30
0.0
  9
$PUCSYDIR
 10
0.0
 20
1.0
 30
0.0
  9
$PUCSORTHOREF
  2

  9
$PUCSORTHOVIEW
 70
     0
  9
$PUCSORGTOP
 10
0.0
 20
0.0
 30
0.0
  9
$PUCSORGBOTTOM
 10
0.0
 20
0.0
 30
0.0
  9
$PUCSORGLEFT
 10
0.0
 20
0.0
 30
0.0
  9
$PUCSORGRIGHT
 10
0.0
 20
0.0
 30
0.0
  9
$PUCSORGFRONT
 10
0.0
 20
0.0
 30
0.0
  9
$PUCSORGBACK
 10
0.0
 20
0.0
 30
0.0
  9
$USERI1
 70
     0
  9
$USERI2
 70
     0
  9
$USERI3
 70
     0
  9
$USERI4
 70
     0
  9
$USERI5
 70
     0
  9
$USERR1
 40
0.0
  9
$USERR2
 40
0.0
  9
$USERR3
 40
0.0
  9
$USERR4
 40
0.0
  9
$USERR5
 40
0.0
  9
$WORLDVIEW
 70
     1
  9
$SHADEDGE
 70
     3
  9
$SHADEDIF
 70
    70
  9
$TILEMODE
 70
     1
  9
$MAXACTVP
 70
    16
  9
$PINSBASE
 10
0.0
 20
0.0
 30
0.0
  9
$PLIMCHECK
 70
     0
  9
$PEXTMIN
 10
1.614583349603368
 20
1.129749872553066
 30
0.0
  9
$PEXTMAX
 10
14.5312501464303
 20
10.1677488529776
 30
0.0
  9
$PLIMMIN
 10
-0.1979161059762549
 20
-0.1979166691697489
  9
$PLIMMAX
 10
16.34375024029589
 20
11.49541603298637
  9
$UNITMODE
 70
     0
  9
$VISRETAIN
 70
     0
  9
$PLINEGEN
 70
     0
  9
$PSLTSCALE
 70
     1
  9
$TREEDEPTH
 70
  3020
  9
$CMLSTYLE
  2
Standard
  9
$CMLJUST
 70
     0
  9
$CMLSCALE
 40
1.0
  9
$PROXYGRAPHICS
 70
     1
  9
$MEASUREMENT
 70
     0
  9
$CELWEIGHT
370
    -1
  9
$ENDCAPS
280
     0
  9
$JOINSTYLE
280
     0
  9
$LWDISPLAY
290
     0
  9
$INSUNITS
 70
     0
  9
$HYPERLINKBASE
  1

  9
$STYLESHEET
  1

  9
$XEDIT
290
     1
  9
$CEPSNTYPE
380
     0
  9
$PSTYLEMODE
290
     1
  9
$FINGERPRINTGUID
  2
{D2342BAE-4A2E-4209-AAC2-5129C10F8F16}
  9
$VERSIONGUID
  2
{1F8842C2-AD2F-11D6-AAC6-0010A4A25215}
  9
$EXTNAMES
290
     1
  9
$PSVPSCALE
 40
0.0
  9
$OLESTARTUP
290
     0
  0
ENDSEC
  0
SECTION
  2
CLASSES
  0
CLASS
  1
ACDBDICTIONARYWDFLT
  2
AcDbDictionaryWithDefault
  3
AutoCAD 2000
 90
        0
280
     1
281
     0
  0
CLASS
  1
ACDBPLACEHOLDER
  2
AcDbPlaceHolder
  3
AutoCAD 2000
 90
        0
280
     1
281
     0
  0
CLASS
  1
LAYOUT
  2
AcDbLayout
  3
AutoCAD 2000
 90
        0
280
     1
281
     0
  0
CLASS
  1
LONG_TRANSACTION
  2
AcDbLongTransaction
  3
AutoCAD 2000
 90
    32768
280
     1
281
     0
  0
CLASS
  1
LWPOLYLINE
  2
AcDbPolyline
  3
AutoCAD 2000
 90
    32768
280
     0
281
     1
  0
CLASS
  1
HATCH
  2
AcDbHatch
  3
AutoCAD 2000
 90
    32768
280
     0
281
     1
  0
CLASS
  1
XRECORD
  2
AcDbXrecord
  3
AutoCAD 2000
 90
    32768
280
     0
281
     0
  0
CLASS
  1
LONG_TRANSACTION
  2
AcDbLongTransaction
  3
AutoCAD 2000
 90
    32768
280
     0
281
     0
  0
CLASS
  1
LWPOLYLINE
  2
AcDbPolyline
  3
AutoCAD 2000
 90
    32768
280
     0
281
     1
  0
CLASS
  1
HATCH
  2
AcDbHatch
  3
AutoCAD 2000
 90
    32768
280
     0
281
     1
  0
CLASS
  1
XRECORD
  2
AcDbXrecord
  3
AutoCAD 2000
 90
    32768
280
     0
281
     0
  0
ENDSEC
  0
SECTION
  2
TABLES
  0
TABLE
  2
VPORT
  5
1C
330
0
100
AcDbSymbolTable
 70
     3
  0
VPORT
  5
1C2
330
1C
100
AcDbSymbolTableRecord
100
AcDbViewportTableRecord
  2
*Active
 70
     0
 10
0.0
 20
0.0
 11
1.0
 21
1.0
 12
34.74280807687273
 22
48.89218374069475
 13
0.0
 23
0.0
 14
5.0
 24
5.0
 15
10.0
 25
10.0
 16
0.0
 26
0.0
 36
1.0
 17
0.0
 27
0.0
 37
0.0
 40
351.6080410274818
 41
1.760948905109489
 42
50.0
 43
0.0
 44
0.0
 50
0.0
 51
0.0
 71
     0
 72
   100
 73
     1
 74
     1
 75
     0
 76
     0
 77
     0
 78
     0
281
     0
 65
     1
110
0.0
120
0.0
130
0.0
111
1.0
121
0.0
131
0.0
112
0.0
122
1.0
132
0.0
 79
     0
146
0.0
  0
ENDTAB
  0
TABLE
  2
LTYPE
  5
13
330
0
100
AcDbSymbolTable
 70
     3
  0
LTYPE
  5
14
330
13
100
AcDbSymbolTableRecord
100
AcDbLinetypeTableRecord
  2
ByBlock
 70
     0
  3

 72
    65
 73
     0
 40
0.0
  0
LTYPE
  5
17
330
13
100
AcDbSymbolTableRecord
100
AcDbLinetypeTableRecord
  2
ByLayer
 70
     0
  3

 72
    65
 73
     0
 40
0.0
  0
LTYPE
  5
8
330
13
100
AcDbSymbolTableRecord
100
AcDbLinetypeTableRecord
  2
CONTINUOUS
 70
     0
  3
Solid line
 72
    65
 73
     0
 40
0.0
  0
LTYPE
  5
7F
330
13
100
AcDbSymbolTableRecord
100
AcDbLinetypeTableRecord
  2
CENTER2
 70
     0
  3
___ _ ___ _ ___ _ ___ _ ___ _ ___ _ ___ _ ___ _
 72
    65
 73
     4
 40
28.57499999999999
 49
19.05
 74
     0
 49
-3.174999999999999
 74
     0
 49
3.174999999999999
 74
     0
 49
-3.174999999999999
 74
     0
  0
LTYPE
  5
51
330
13
100
AcDbSymbolTableRecord
100
AcDbLinetypeTableRecord
  2
HIDDEN
 70
     0
  3
__ __ __ __ __ __ __ __ __ __ __ __ __ __ __ __
 72
    65
 73
     2
 40
9.524999999999998
 49
6.349999999999999
 74
     0
 49
-3.174999999999999
 74
     0
  0
ENDTAB
  0
TABLE
  2
LAYER
  5
10
330
0
100
AcDbSymbolTable
 70
    11
  0
LAYER
  5
7
330
10
100
AcDbSymbolTableRecord
100
AcDbLayerTableRecord
  2
0
 70
     0
 62
     7
  6
CONTINUOUS
370
    -3
390
14D
  0
LAYER
  5
2E
330
10
100
AcDbSymbolTableRecord
100
AcDbLayerTableRecord
  2
DIMS
 70
     0
 62
     1
  6
CONTINUOUS
370
    -3
390
14D
  0
LAYER
  5
3F
330
10
100
AcDbSymbolTableRecord
100
AcDbLayerTableRecord
  2
ANCON-DSD
 70
     0
 62
     3
  6
CONTINUOUS
370
    -3
390
14D
  0
LAYER
  5
37
330
10
100
AcDbSymbolTableRecord
100
AcDbLayerTableRecord
  2
DEFPOINTS
 70
     0
 62
     7
  6
CONTINUOUS
290
     0
370
    -3
390
14D
  0
LAYER
  5
6D
330
10
100
AcDbSymbolTableRecord
100
AcDbLayerTableRecord
  2
CONCRETE
 70
     0
 62
     2
  6
CONTINUOUS
370
    -3
390
14D
  0
LAYER
  5
C8
330
10
100
AcDbSymbolTableRecord
100
AcDbLayerTableRecord
  2
ORIGIN
 70
     0
 62
     7
  6
CONTINUOUS
370
    -3
390
14D
  0
LAYER
  5
50
330
10
100
AcDbSymbolTableRecord
100
AcDbLayerTableRecord
  2
20MM-JOINT
 70
     0
 62
     7
  6
CONTINUOUS
370
    -3
390
14D
  0
LAYER
  5
27
330
10
100
AcDbSymbolTableRecord
100
AcDbLayerTableRecord
  2
ANCON-TEXT
 70
     0
 62
     6
  6
CONTINUOUS
370
    -3
390
14D
  0
LAYER
  5
145
330
10
100
AcDbSymbolTableRecord
100
AcDbLayerTableRecord
  2
SPECP
 70
     0
 62
     6
  6
CONTINUOUS
370
    -3
390
14D
  0
LAYER
  5
88
330
10
100
AcDbSymbolTableRecord
100
AcDbLayerTableRecord
  2
SPECD
 70
     0
 62
     6
  6
CONTINUOUS
370
    -3
390
14D
  0
LAYER
  5
42
330
10
100
AcDbSymbolTableRecord
100
AcDbLayerTableRecord
  2
20MM-DIMS
 70
     0
 62
     1
  6
CONTINUOUS
370
    -3
390
14D
  0
ENDTAB
  0
TABLE
  2
STYLE
  5
11
330
0
100
AcDbSymbolTable
 70
     2
  0
STYLE
  5
12
330
11
100
AcDbSymbolTableRecord
100
AcDbTextStyleTableRecord
  2
STANDARD
 70
     0
 40
0.0
 41
1.0
 50
0.0
 71
     0
 42
6.0
  3
txt.shx
  4

  0
STYLE
  5
28
330
11
100
AcDbSymbolTableRecord
100
AcDbTextStyleTableRecord
  2
ROMANS
 70
     0
 40
0.0
 41
1.0
 50
0.0
 71
     0
 42
5.0
  3
romans
  4

  0
ENDTAB
  0
TABLE
  2
VIEW
  5
1A
330
0
100
AcDbSymbolTable
 70
     0
  0
ENDTAB
  0
TABLE
  2
UCS
  5
1B
330
0
100
AcDbSymbolTable
 70
     0
  0
ENDTAB
  0
TABLE
  2
APPID
  5
1E
330
0
100
AcDbSymbolTable
 70
     1
  0
APPID
  5
1F
330
1E
100
AcDbSymbolTableRecord
100
AcDbRegAppTableRecord
  2
ACAD
 70
     0
  0
ENDTAB
  0
TABLE
  2
DIMSTYLE
  5
20
330
0
100
AcDbSymbolTable
 70
     1
100
AcDbDimStyleTable
 71
     0
  0
DIMSTYLE
105
2A
102
{ACAD_REACTORS
330
6F
330
B7
330
92
330
A8
330
41
330
2D
102
}
330
20
100
AcDbSymbolTableRecord
100
AcDbDimStyleTableRecord
  2
1-2
 70
     0
 40
0.0
 41
4.0
 42
3.0
 43
10.0
 44
3.0
 46
1.25
 73
     0
 74
     0
 77
     1
 78
    12
140
3.0
141
-3.0
143
0.04
146
0.75
147
1.5
271
     2
272
     2
279
     2
284
    12
285
    12
286
    12
340
12
  0
ENDTAB
  0
TABLE
  2
BLOCK_RECORD
  5
1
330
0
100
AcDbSymbolTable
 70
     9
  0
BLOCK_RECORD
  5
2
102
{ACAD_XDICTIONARY
360
3
102
}
330
1
100
AcDbSymbolTableRecord
100
AcDbBlockTableRecord
  2
*Model_Space
340
150
  0
BLOCK_RECORD
  5
A
102
{ACAD_XDICTIONARY
360
B
102
}
330
1
100
AcDbSymbolTableRecord
100
AcDbBlockTableRecord
  2
*Paper_Space
340
151
  0
BLOCK_RECORD
  5
DB
330
1
100
AcDbSymbolTableRecord
100
AcDbBlockTableRecord
  2
*X0
340
0
102
{BLKREFS
331
DA
331
ED
331
10E
331
10F
102
}
  0
BLOCK_RECORD
  5
54
330
1
100
AcDbSymbolTableRecord
100
AcDbBlockTableRecord
  2
*X1
340
0
102
{BLKREFS
331
53
331
83
102
}
  0
BLOCK_RECORD
  5
B8
330
1
100
AcDbSymbolTableRecord
100
AcDbBlockTableRecord
  2
*D2
340
0
  0
BLOCK_RECORD
  5
43
330
1
100
AcDbSymbolTableRecord
100
AcDbBlockTableRecord
  2
*D3
340
0
  0
BLOCK_RECORD
  5
70
330
1
100
AcDbSymbolTableRecord
100
AcDbBlockTableRecord
  2
*D4
340
0
  0
BLOCK_RECORD
  5
2F
330
1
100
AcDbSymbolTableRecord
100
AcDbBlockTableRecord
  2
*D5
340
0
  0
BLOCK_RECORD
  5
93
330
1
100
AcDbSymbolTableRecord
100
AcDbBlockTableRecord
  2
*D6
340
0
  0
BLOCK_RECORD
  5
A9
330
1
100
AcDbSymbolTableRecord
100
AcDbBlockTableRecord
  2
*D7
340
0
  0
BLOCK_RECORD
  5
86
330
1
100
AcDbSymbolTableRecord
100
AcDbBlockTableRecord
  2
A$C6BE937E7
340
0
  0
ENDTAB
  0
ENDSEC
  0
SECTION
  2
BLOCKS
  0
BLOCK
  5
6
330
2
100
AcDbEntity
  8
0
100
AcDbBlockBegin
  2
*Model_Space
 70
     0
 10
0.0
 20
0.0
 30
0.0
  3
*Model_Space
  1

  0
ENDBLK
  5
9
330
2
100
AcDbEntity
  8
0
100
AcDbBlockEnd
  0
BLOCK
  5
E
330
A
100
AcDbEntity
 67
     1
  8
0
100
AcDbBlockBegin
  2
*Paper_Space
 70
     0
 10
0.0
 20
0.0
 30
0.0
  3
*Paper_Space
  1

  0
ENDBLK
  5
F
330
A
100
AcDbEntity
 67
     1
  8
0
100
AcDbBlockEnd
  0
BLOCK
  5
EB
330
DB
100
AcDbEntity
  8
0
100
AcDbBlockBegin
  2
*X0
 70
     1
 10
0.0
 20
0.0
 30
0.0
  3
*X0
  1

  0
LINE
  5
DC
330
DB
100
AcDbEntity
  8
0
 62
     0
100
AcDbLine
 10
16606.692571852
 20
6222.861333480277
 30
0.0
 11
16612.6260447593
 21
6229.045287321157
 31
0.0
  0
LINE
  5
DD
330
DB
100
AcDbEntity
  8
0
 62
     0
100
AcDbLine
 10
16613.47243591315
 20
6221.793064744256
 30
0.0
 11
16612.63056471274
 21
6229.029760339063
 31
0.0
  0
LINE
  5
DE
330
DB
100
AcDbEntity
  8
0
 62
     0
100
AcDbLine
 10
16606.75459926325
 20
6222.805802461711
 30
0.0
 11
16613.48381931619
 21
6221.76213988749
 31
0.0
  0
LINE
  5
DF
330
DB
100
AcDbEntity
  8
0
 62
     0
100
AcDbLine
 10
16598.83254942096
 20
6235.781279095355
 30
0.0
 11
16603.81983582804
 21
6237.695718979455
 31
0.0
  0
LINE
  5
E0
330
DB
100
AcDbEntity
  8
0
 62
     0
100
AcDbLine
 10
16598.95877495299
 20
6235.313052809023
 30
0.0
 11
16602.26926435685
 21
6233.080099511202
 31
0.0
  0
LINE
  5
E1
330
DB
100
AcDbEntity
  8
0
 62
     0
100
AcDbLine
 10
16602.27464591158
 20
6233.087104688284
 30
0.0
 11
16603.81970102708
 21
6237.691803776179
 31
0.0
  0
LINE
  5
E2
330
DB
100
AcDbEntity
  8
0
 62
     0
100
AcDbLine
 10
16631.10490220532
 20
6252.438068061223
 30
0.0
 11
16631.10490220532
 21
6252.438068061223
 31
0.0
  0
LINE
  5
E3
330
DB
100
AcDbEntity
  8
0
 62
     0
100
AcDbLine
 10
16630.17832123014
 20
6227.071556399278
 30
0.0
 11
16630.17832123014
 21
6227.071556399278
 31
0.0
  0
LINE
  5
E4
330
DB
100
AcDbEntity
  8
0
 62
     0
100
AcDbLine
 10
16616.04230734596
 20
6217.560201586398
 30
0.0
 11
16616.04230734596
 21
6217.560201586398
 31
0.0
  0
LINE
  5
E5
330
DB
100
AcDbEntity
  8
0
 62
     0
100
AcDbLine
 10
16607.22883249624
 20
6243.814965418216
 30
0.0
 11
16607.22883249624
 21
6243.814965418216
 31
0.0
  0
LINE
  5
E6
330
DB
100
AcDbEntity
  8
0
 62
     0
100
AcDbLine
 10
16636.08820609905
 20
6247.614374031834
 30
0.0
 11
16636.08820609905
 21
6247.614374031834
 31
0.0
  0
LINE
  5
E7
330
DB
100
AcDbEntity
  8
0
 62
     0
100
AcDbLine
 10
16615.82834361917
 20
6243.860318283187
 30
0.0
 11
16615.82834361917
 21
6243.860318283187
 31
0.0
  0
LINE
  5
E8
330
DB
100
AcDbEntity
  8
0
 62
     0
100
AcDbLine
 10
16631.89495066191
 20
6233.624760744181
 30
0.0
 11
16631.89495066191
 21
6233.624760744181
 31
0.0
  0
LINE
  5
E9
330
DB
100
AcDbEntity
  8
0
 62
     0
100
AcDbLine
 10
16603.34351944143
 20
6230.047559735862
 30
0.0
 11
16603.34351944143
 21
6230.047559735862
 31
0.0
  0
LINE
  5
EA
330
DB
100
AcDbEntity
  8
0
 62
     0
100
AcDbLine
 10
16647.78227385724
 20
6237.675507045864
 30
0.0
 11
16647.78227385724
 21
6237.675507045864
 31
0.0
  0
ENDBLK
  5
EC
330
DB
100
AcDbEntity
  8
0
100
AcDbBlockEnd
  0
BLOCK
  5
6A
330
54
100
AcDbEntity
  8
0
100
AcDbBlockBegin
  2
*X1
 70
     1
 10
0.0
 20
0.0
 30
0.0
  3
*X1
  1
*U
  0
LINE
  5
55
330
54
100
AcDbEntity
  8
0
 62
     0
100
AcDbLine
 10
15332.80691922616
 20
-44932.48847188444
 30
0.0
 11
15336.48045041552
 21
-44928.11052789202
 31
0.0
  0
LINE
  5
56
330
54
100
AcDbEntity
  8
0
 62
     0
100
AcDbLine
 10
15387.46231992496
 20
-44937.27019754611
 30
0.0
 11
15391.13585111432
 21
-44932.89225355368
 31
0.0
  0
LINE
  5
57
330
54
100
AcDbEntity
  8
0
 62
     0
100
AcDbLine
 10
15332.645938767
 20
-44932.43984416161
 30
0.0
 11
15337.20054092668
 21
-44932.83832021746
 31
0.0
  0
LINE
  5
58
330
54
100
AcDbEntity
  8
0
 62
     0
100
AcDbLine
 10
15387.30116468311
 20
-44937.22155683173
 30
0.0
 11
15391.85576684278
 21
-44937.62003288757
 31
0.0
  0
LINE
  5
59
330
54
100
AcDbEntity
  8
0
 62
     0
100
AcDbLine
 10
15336.84543181316
 20
-44932.96347627347
 30
0.0
 11
15335.96439839536
 21
-44928.18705197105
 31
0.0
  0
LINE
  5
5A
330
54
100
AcDbEntity
  8
0
 62
     0
100
AcDbLine
 10
15391.5005833266
 20
-44937.74556155637
 30
0.0
 11
15390.6195499088
 21
-44932.96913725396
 31
0.0
  0
LINE
  5
5B
330
54
100
AcDbEntity
  8
0
 62
     0
100
AcDbLine
 10
15369.24500861571
 20
-44920.00003531436
 30
0.0
 11
15371.82338227985
 21
-44917.31281587767
 31
0.0
  0
LINE
  5
5C
330
54
100
AcDbEntity
  8
0
 62
     0
100
AcDbLine
 10
15376.01476064486
 20
-44920.95467879014
 30
0.0
 11
15375.67599582237
 21
-44918.0426681436
 31
0.0
  0
LINE
  5
5D
330
54
100
AcDbEntity
  8
0
 62
     0
100
AcDbLine
 10
15369.18166048556
 20
-44919.93344034319
 30
0.0
 11
15375.95863747582
 21
-44920.98450973836
 31
0.0
  0
LINE
  5
5E
330
54
100
AcDbEntity
  8
0
 62
     0
100
AcDbLine
 10
15322.46670511942
 20
-44945.06886979667
 30
0.0
 11
15327.80211725685
 21
-44943.02079696502
 31
0.0
  0
LINE
  5
5F
330
54
100
AcDbEntity
  8
0
 62
     0
100
AcDbLine
 10
15322.32202676531
 20
-44944.9451100819
 30
0.0
 11
15325.89109970756
 21
-44947.35248017868
 31
0.0
  0
LINE
  5
60
330
54
100
AcDbEntity
  8
0
 62
     0
100
AcDbLine
 10
15326.09630612562
 20
-44947.40237347595
 30
0.0
 11
15327.61322237235
 21
-44942.88153613647
 31
0.0
  0
LINE
  5
61
330
54
100
AcDbEntity
  8
0
 62
     0
100
AcDbLine
 10
15344.43613389468
 20
-44933.49850737506
 30
0.0
 11
15344.43613389468
 21
-44933.49850737506
 31
0.0
  0
LINE
  5
62
330
54
100
AcDbEntity
  8
0
 62
     0
100
AcDbLine
 10
15383.56001292074
 20
-44928.13322019708
 30
0.0
 11
15383.56001292074
 21
-44928.13322019708
 31
0.0
  0
LINE
  5
63
330
54
100
AcDbEntity
  8
0
 62
     0
100
AcDbLine
 10
15324.08893883409
 20
-44944.57712941013
 30
0.0
 11
15324.08893883409
 21
-44944.57712941013
 31
0.0
  0
LINE
  5
64
330
54
100
AcDbEntity
  8
0
 62
     0
100
AcDbLine
 10
15352.94831243691
 20
-44940.77772079651
 30
0.0
 11
15352.94831243691
 21
-44940.77772079651
 31
0.0
  0
LINE
  5
65
330
54
100
AcDbEntity
  8
0
 62
     0
100
AcDbLine
 10
15370.15185636103
 20
-44934.69977449441
 30
0.0
 11
15370.15185636103
 21
-44934.69977449441
 31
0.0
  0
LINE
  5
66
330
54
100
AcDbEntity
  8
0
 62
     0
100
AcDbLine
 10
15329.47467781097
 20
-44932.98115129659
 30
0.0
 11
15329.47467781097
 21
-44932.98115129659
 31
0.0
  0
LINE
  5
67
330
54
100
AcDbEntity
  8
0
 62
     0
100
AcDbLine
 10
15345.5412848537
 20
-44943.21670883561
 30
0.0
 11
15345.5412848537
 21
-44943.21670883561
 31
0.0
  0
LINE
  5
68
330
54
100
AcDbEntity
  8
0
 62
     0
100
AcDbLine
 10
15392.02993037373
 20
-44924.78498136955
 30
0.0
 11
15392.02993037373
 21
-44924.78498136955
 31
0.0
  0
LINE
  5
69
330
54
100
AcDbEntity
  8
0
 62
     0
100
AcDbLine
 10
15347.59117595792
 20
-44932.41292867955
 30
0.0
 11
15347.59117595792
 21
-44932.41292867955
 31
0.0
  0
ENDBLK
  5
6B
330
54
100
AcDbEntity
  8
0
100
AcDbBlockEnd
  0
BLOCK
  5
C4
330
B8
100
AcDbEntity
  8
0
100
AcDbBlockBegin
  2
*D2
 70
     1
 10
0.0
 20
0.0
 30
0.0
  3
*D2
  1

  0
LINE
  5
B9
330
B8
100
AcDbEntity
  8
0
  6
ByBlock
 62
     0
100
AcDbLine
 10
0.0000000000000027
 20
-41.0
 30
0.0
 11
0.0000000000000027
 21
-51.71360481256672
 31
0.0
  0
LINE
  5
BA
330
B8
100
AcDbEntity
  8
0
  6
ByBlock
 62
     0
100
AcDbLine
 10
2.000000000000002
 20
-41.0
 30
0.0
 11
2.000000000000002
 21
-51.71360481256672
 31
0.0
  0
LINE
  5
BB
330
B8
100
AcDbEntity
  8
0
  6
ByBlock
 62
     0
100
AcDbLine
 10
-3.999999999999997
 20
-48.71360481256672
 30
0.0
 11
-7.999999999999997
 21
-48.71360481256672
 31
0.0
  0
LINE
  5
BC
330
B8
100
AcDbEntity
  8
0
  6
ByBlock
 62
     0
100
AcDbLine
 10
6.000000000000002
 20
-48.71360481256672
 30
0.0
 11
10.0
 21
-48.71360481256672
 31
0.0
  0
LINE
  5
BD
330
B8
100
AcDbEntity
  8
0
  6
ByBlock
 62
     0
100
AcDbLine
 10
10.0
 20
-48.71360481256672
 30
0.0
 11
13.5
 21
-48.71360481256672
 31
0.0
  0
SOLID
  5
BE
330
B8
100
AcDbEntity
  8
0
  6
ByBlock
 62
     0
100
AcDbTrace
 10
-3.999999999999997
 20
-48.04693814590006
 30
0.0
 11
-3.999999999999997
 21
-49.38027147923339
 31
0.0
 12
0.0000000000000027
 22
-48.71360481256672
 32
0.0
 13
0.0000000000000027
 23
-48.71360481256672
 33
0.0
  0
SOLID
  5
BF
330
B8
100
AcDbEntity
  8
0
  6
ByBlock
 62
     0
100
AcDbTrace
 10
6.000000000000002
 20
-48.04693814590006
 30
0.0
 11
6.000000000000002
 21
-49.38027147923339
 31
0.0
 12
2.000000000000002
 22
-48.71360481256672
 32
0.0
 13
2.000000000000002
 23
-48.71360481256672
 33
0.0
  0
TEXT
  5
C0
330
B8
100
AcDbEntity
  8
0
  6
ByBlock
 62
     0
100
AcDbText
 10
11.07142857142857
 20
-47.21360481256672
 30
0.0
 40
3.0
  1
2
  7
ROMANS
 72
     1
 11
12.5
 21
-45.71360481256672
 31
0.0
100
AcDbText
 73
     2
  0
POINT
  5
C1
330
B8
100
AcDbEntity
  8
DEFPOINTS
  6
ByBlock
 62
     0
100
AcDbPoint
 10
0.0000000000000027
 20
-38.0
 30
0.0
  0
POINT
  5
C2
330
B8
100
AcDbEntity
  8
DEFPOINTS
  6
ByBlock
 62
     0
100
AcDbPoint
 10
2.000000000000002
 20
-38.0
 30
0.0
  0
POINT
  5
C3
330
B8
100
AcDbEntity
  8
DEFPOINTS
  6
ByBlock
 62
     0
100
AcDbPoint
 10
2.000000000000002
 20
-48.71360481256672
 30
0.0
  0
ENDBLK
  5
C5
330
B8
100
AcDbEntity
  8
0
100
AcDbBlockEnd
  0
BLOCK
  5
4D
330
43
100
AcDbEntity
  8
0
100
AcDbBlockBegin
  2
*D3
 70
     1
 10
0.0
 20
0.0
 30
0.0
  3
*D3
  1

  0
LINE
  5
44
330
43
100
AcDbEntity
  8
0
  6
ByBlock
 62
     0
100
AcDbLine
 10
0.0000000000000027
 20
-41.0
 30
0.0
 11
0.0000000000000027
 21
-62.84107725227959
 31
0.0
  0
LINE
  5
45
330
43
100
AcDbEntity
  8
0
  6
ByBlock
 62
     0
100
AcDbLine
 10
179.9962777280847
 20
-11.99999999999983
 30
0.0
 11
179.9962777280847
 21
-62.84107725227959
 31
0.0
  0
LINE
  5
46
330
43
100
AcDbEntity
  8
0
  6
ByBlock
 62
     0
100
AcDbLine
 10
4.000000000000002
 20
-59.84107725227959
 30
0.0
 11
175.9962777280847
 21
-59.84107725227959
 31
0.0
  0
SOLID
  5
47
330
43
100
AcDbEntity
  8
0
  6
ByBlock
 62
     0
100
AcDbTrace
 10
4.000000000000002
 20
-59.17441058561292
 30
0.0
 11
4.000000000000002
 21
-60.50774391894625
 31
0.0
 12
0.0000000000000027
 22
-59.84107725227959
 32
0.0
 13
0.0000000000000027
 23
-59.84107725227959
 33
0.0
  0
SOLID
  5
48
330
43
100
AcDbEntity
  8
0
  6
ByBlock
 62
     0
100
AcDbTrace
 10
175.9962777280847
 20
-59.17441058561292
 30
0.0
 11
175.9962777280847
 21
-60.50774391894625
 31
0.0
 12
179.9962777280847
 22
-59.84107725227959
 32
0.0
 13
179.9962777280847
 23
-59.84107725227959
 33
0.0
  0
TEXT
  5
49
330
43
100
AcDbEntity
  8
0
  6
ByBlock
 62
     0
100
AcDbText
 10
85.49813886404235
 20
-58.34107725227958
 30
0.0
 40
3.0
  1
180
  7
ROMANS
 72
     1
 11
89.99813886404236
 21
-56.84107725227959
 31
0.0
100
AcDbText
 73
     2
  0
POINT
  5
4A
330
43
100
AcDbEntity
  8
DEFPOINTS
  6
ByBlock
 62
     0
100
AcDbPoint
 10
0.0000000000000027
 20
-38.0
 30
0.0
  0
POINT
  5
4B
330
43
100
AcDbEntity
  8
DEFPOINTS
  6
ByBlock
 62
     0
100
AcDbPoint
 10
179.9962777280847
 20
-8.999999999999829
 30
0.0
  0
POINT
  5
4C
330
43
100
AcDbEntity
  8
DEFPOINTS
  6
ByBlock
 62
     0
100
AcDbPoint
 10
179.9962777280847
 20
-59.84107725227959
 30
0.0
  0
ENDBLK
  5
4E
330
43
100
AcDbEntity
  8
0
100
AcDbBlockEnd
  0
BLOCK
  5
7A
330
70
100
AcDbEntity
  8
0
100
AcDbBlockBegin
  2
*D4
 70
     1
 10
0.0
 20
0.0
 30
0.0
  3
*D4
  1

  0
LINE
  5
71
330
70
100
AcDbEntity
  8
0
  6
ByBlock
 62
     0
100
AcDbLine
 10
0.0000000000000027
 20
-41.0
 30
0.0
 11
0.0000000000000027
 21
-87.77331362369896
 31
0.0
  0
LINE
  5
72
330
70
100
AcDbEntity
  8
0
  6
ByBlock
 62
     0
100
AcDbLine
 10
225.0
 20
-15.49999999999999
 30
0.0
 11
225.0
 21
-87.77331362369896
 31
0.0
  0
LINE
  5
73
330
70
100
AcDbEntity
  8
0
  6
ByBlock
 62
     0
100
AcDbLine
 10
4.000000000000002
 20
-84.77331362369895
 30
0.0
 11
221.0
 21
-84.77331362369895
 31
0.0
  0
SOLID
  5
74
330
70
100
AcDbEntity
  8
0
  6
ByBlock
 62
     0
100
AcDbTrace
 10
4.000000000000002
 20
-84.10664695703228
 30
0.0
 11
4.000000000000002
 21
-85.43998029036563
 31
0.0
 12
0.0000000000000027
 22
-84.77331362369895
 32
0.0
 13
0.0000000000000027
 23
-84.77331362369895
 33
0.0
  0
SOLID
  5
75
330
70
100
AcDbEntity
  8
0
  6
ByBlock
 62
     0
100
AcDbTrace
 10
221.0
 20
-84.10664695703228
 30
0.0
 11
221.0
 21
-85.43998029036563
 31
0.0
 12
225.0
 22
-84.77331362369895
 32
0.0
 13
225.0
 23
-84.77331362369895
 33
0.0
  0
TEXT
  5
76
330
70
100
AcDbEntity
  8
0
  6
ByBlock
 62
     0
100
AcDbText
 10
108.2142857142857
 20
-83.27331362369895
 30
0.0
 40
3.0
  1
225
  7
ROMANS
 72
     1
 11
112.5
 21
-81.77331362369896
 31
0.0
100
AcDbText
 73
     2
  0
POINT
  5
77
330
70
100
AcDbEntity
  8
DEFPOINTS
  6
ByBlock
 62
     0
100
AcDbPoint
 10
0.0000000000000027
 20
-38.0
 30
0.0
  0
POINT
  5
78
330
70
100
AcDbEntity
  8
DEFPOINTS
  6
ByBlock
 62
     0
100
AcDbPoint
 10
225.0
 20
-12.49999999999999
 30
0.0
  0
POINT
  5
79
330
70
100
AcDbEntity
  8
DEFPOINTS
  6
ByBlock
 62
     0
100
AcDbPoint
 10
225.0
 20
-84.77331362369895
 30
0.0
  0
ENDBLK
  5
7B
330
70
100
AcDbEntity
  8
0
100
AcDbBlockEnd
  0
BLOCK
  5
3C
330
2F
100
AcDbEntity
  8
0
100
AcDbBlockBegin
  2
*D5
 70
     1
 10
0.0
 20
0.0
 30
0.0
  3
*D5
  1

  0
LINE
  5
30
330
2F
100
AcDbEntity
  8
0
  6
ByBlock
 62
     0
100
AcDbLine
 10
0.0000000000000027
 20
-41.0
 30
0.0
 11
0.0000000000000027
 21
-75.77331362369895
 31
0.0
  0
LINE
  5
31
330
2F
100
AcDbEntity
  8
0
  6
ByBlock
 62
     0
100
AcDbLine
 10
210.0
 20
-15.49999999999999
 30
0.0
 11
210.0
 21
-75.77331362369895
 31
0.0
  0
LINE
  5
32
330
2F
100
AcDbEntity
  8
0
  6
ByBlock
 62
     0
100
AcDbLine
 10
4.000000000000002
 20
-72.77331362369896
 30
0.0
 11
206.0
 21
-72.77331362369896
 31
0.0
  0
SOLID
  5
33
330
2F
100
AcDbEntity
  8
0
  6
ByBlock
 62
     0
100
AcDbTrace
 10
4.000000000000002
 20
-72.10664695703228
 30
0.0
 11
4.000000000000002
 21
-73.43998029036562
 31
0.0
 12
0.0000000000000027
 22
-72.77331362369896
 32
0.0
 13
0.0000000000000027
 23
-72.77331362369896
 33
0.0
  0
SOLID
  5
34
330
2F
100
AcDbEntity
  8
0
  6
ByBlock
 62
     0
100
AcDbTrace
 10
206.0
 20
-72.10664695703228
 30
0.0
 11
206.0
 21
-73.43998029036562
 31
0.0
 12
210.0
 22
-72.77331362369896
 32
0.0
 13
210.0
 23
-72.77331362369896
 33
0.0
  0
TEXT
  5
35
330
2F
100
AcDbEntity
  8
0
  6
ByBlock
 62
     0
100
AcDbText
 10
100.7142857142857
 20
-71.27331362369895
 30
0.0
 40
3.0
  1
210
  7
ROMANS
 72
     1
 11
105.0
 21
-69.77331362369895
 31
0.0
100
AcDbText
 73
     2
  0
POINT
  5
36
330
2F
100
AcDbEntity
  8
DEFPOINTS
  6
ByBlock
 62
     0
100
AcDbPoint
 10
0.0000000000000027
 20
-38.0
 30
0.0
  0
POINT
  5
3A
330
2F
100
AcDbEntity
  8
DEFPOINTS
  6
ByBlock
 62
     0
100
AcDbPoint
 10
210.0
 20
-12.49999999999999
 30
0.0
  0
POINT
  5
3B
330
2F
100
AcDbEntity
  8
DEFPOINTS
  6
ByBlock
 62
     0
100
AcDbPoint
 10
210.0
 20
-72.77331362369896
 30
0.0
  0
ENDBLK
  5
3D
330
2F
100
AcDbEntity
  8
0
100
AcDbBlockEnd
  0
BLOCK
  5
9D
330
93
100
AcDbEntity
  8
0
100
AcDbBlockBegin
  2
*D6
 70
     1
 10
0.0
 20
0.0
 30
0.0
  3
*D6
  1

  0
LINE
  5
94
330
93
100
AcDbEntity
  8
0
  6
ByBlock
 62
     0
100
AcDbLine
 10
-220.0
 20
-11.99999999999977
 30
0.0
 11
-220.0
 21
-87.77331362369896
 31
0.0
  0
LINE
  5
95
330
93
100
AcDbEntity
  8
0
  6
ByBlock
 62
     0
100
AcDbLine
 10
-19.99999999999996
 20
-13.99999999999982
 30
0.0
 11
-19.99999999999996
 21
-87.77331362369896
 31
0.0
  0
LINE
  5
96
330
93
100
AcDbEntity
  8
0
  6
ByBlock
 62
     0
100
AcDbLine
 10
-216.0
 20
-84.77331362369895
 30
0.0
 11
-23.99999999999996
 21
-84.77331362369895
 31
0.0
  0
SOLID
  5
97
330
93
100
AcDbEntity
  8
0
  6
ByBlock
 62
     0
100
AcDbTrace
 10
-216.0
 20
-84.10664695703228
 30
0.0
 11
-216.0
 21
-85.43998029036563
 31
0.0
 12
-220.0
 22
-84.77331362369895
 32
0.0
 13
-220.0
 23
-84.77331362369895
 33
0.0
  0
SOLID
  5
98
330
93
100
AcDbEntity
  8
0
  6
ByBlock
 62
     0
100
AcDbTrace
 10
-23.99999999999996
 20
-84.10664695703228
 30
0.0
 11
-23.99999999999996
 21
-85.43998029036563
 31
0.0
 12
-19.99999999999996
 22
-84.77331362369895
 32
0.0
 13
-19.99999999999996
 23
-84.77331362369895
 33
0.0
  0
TEXT
  5
99
330
93
100
AcDbEntity
  8
0
  6
ByBlock
 62
     0
100
AcDbText
 10
-124.2857142857142
 20
-83.27331362369895
 30
0.0
 40
3.0
  1
200
  7
ROMANS
 72
     1
 11
-120.0
 21
-81.77331362369896
 31
0.0
100
AcDbText
 73
     2
  0
POINT
  5
9A
330
93
100
AcDbEntity
  8
DEFPOINTS
  6
ByBlock
 62
     0
100
AcDbPoint
 10
-220.0
 20
-8.999999999999772
 30
0.0
  0
POINT
  5
9B
330
93
100
AcDbEntity
  8
DEFPOINTS
  6
ByBlock
 62
     0
100
AcDbPoint
 10
-19.99999999999996
 20
-10.99999999999982
 30
0.0
  0
POINT
  5
9C
330
93
100
AcDbEntity
  8
DEFPOINTS
  6
ByBlock
 62
     0
100
AcDbPoint
 10
-19.99999999999996
 20
-84.77331362369895
 30
0.0
  0
ENDBLK
  5
9E
330
93
100
AcDbEntity
  8
0
100
AcDbBlockEnd
  0
BLOCK
  5
B3
330
A9
100
AcDbEntity
  8
0
100
AcDbBlockBegin
  2
*D7
 70
     1
 10
0.0
 20
0.0
 30
0.0
  3
*D7
  1

  0
LINE
  5
AA
330
A9
100
AcDbEntity
  8
0
  6
ByBlock
 62
     0
100
AcDbLine
 10
-19.99999999999996
 20
-13.99999999999982
 30
0.0
 11
-19.99999999999996
 21
-87.77331362369896
 31
0.0
  0
LINE
  5
AB
330
A9
100
AcDbEntity
  8
0
  6
ByBlock
 62
     0
100
AcDbLine
 10
0.0000000000000359
 20
-41.0
 30
0.0
 11
0.0000000000000359
 21
-87.77331362369896
 31
0.0
  0
LINE
  5
AC
330
A9
100
AcDbEntity
  8
0
  6
ByBlock
 62
     0
100
AcDbLine
 10
-15.99999999999996
 20
-84.77331362369895
 30
0.0
 11
-3.999999999999964
 21
-84.77331362369895
 31
0.0
  0
SOLID
  5
AD
330
A9
100
AcDbEntity
  8
0
  6
ByBlock
 62
     0
100
AcDbTrace
 10
-15.99999999999996
 20
-84.10664695703228
 30
0.0
 11
-15.99999999999996
 21
-85.43998029036563
 31
0.0
 12
-19.99999999999996
 22
-84.77331362369895
 32
0.0
 13
-19.99999999999996
 23
-84.77331362369895
 33
0.0
  0
SOLID
  5
AE
330
A9
100
AcDbEntity
  8
0
  6
ByBlock
 62
     0
100
AcDbTrace
 10
-3.999999999999964
 20
-84.10664695703228
 30
0.0
 11
-3.999999999999964
 21
-85.43998029036563
 31
0.0
 12
0.0000000000000359
 22
-84.77331362369895
 32
0.0
 13
0.0000000000000359
 23
-84.77331362369895
 33
0.0
  0
TEXT
  5
AF
330
A9
100
AcDbEntity
  8
0
  6
ByBlock
 62
     0
100
AcDbText
 10
-12.85714285714282
 20
-83.27331362369895
 30
0.0
 40
3.0
  1
20
  7
ROMANS
 72
     1
 11
-9.999999999999966
 21
-81.77331362369896
 31
0.0
100
AcDbText
 73
     2
  0
POINT
  5
B0
330
A9
100
AcDbEntity
  8
DEFPOINTS
  6
ByBlock
 62
     0
100
AcDbPoint
 10
-19.99999999999996
 20
-10.99999999999982
 30
0.0
  0
POINT
  5
B1
330
A9
100
AcDbEntity
  8
DEFPOINTS
  6
ByBlock
 62
     0
100
AcDbPoint
 10
0.0000000000000359
 20
-38.0
 30
0.0
  0
POINT
  5
B2
330
A9
100
AcDbEntity
  8
DEFPOINTS
  6
ByBlock
 62
     0
100
AcDbPoint
 10
0.0000000000000359
 20
-84.77331362369895
 30
0.0
  0
ENDBLK
  5
B4
330
A9
100
AcDbEntity
  8
0
100
AcDbBlockEnd
  0
BLOCK
  5
90
330
86
100
AcDbEntity
  8
0
 62
     1
100
AcDbBlockBegin
  2
A$C6BE937E7
 70
     0
 10
0.0
 20
0.0
 30
0.0
  3
A$C6BE937E7
  1

  0
TEXT
  5
87
330
86
100
AcDbEntity
  8
SPECD
 62
     6
100
AcDbText
 10
4.668392196768905
 20
18.71588358345923
 30
0.0
 40
5.0
  1
AND 20mm-JOINT. AND UNFREEZE DESIRED NEW 
  7
ROMANS
 72
     4
 11
102.5255350539117
 21
21.21588358345923
 31
0.0
100
AcDbText
  0
LINE
  5
89
330
86
100
AcDbEntity
  8
SPECD
 62
     6
100
AcDbLine
 10
0.0000004097963711
 20
53.03369301694681
 30
0.0
 11
202.4869505164367
 21
53.03369301694681
 31
0.0
  0
LINE
  5
8A
330
86
100
AcDbEntity
  8
SPECD
 62
     6
100
AcDbLine
 10
0.0000004097963711
 20
0.0000004313964723
 30
0.0
 11
202.4869505164367
 21
0.0000004313964723
 31
0.0
  0
TEXT
  5
8B
330
86
100
AcDbEntity
  8
SPECD
 62
     6
100
AcDbText
 10
4.207581425801549
 20
28.3361790613278
 30
0.0
 40
5.0
  1
FOR OTHER WIDTHS, FREEZE LAYERS 20mm-DIMS
  7
ROMANS
 72
     4
 11
101.3504385686587
 21
30.35998858513733
 31
0.0
100
AcDbText
  0
TEXT
  5
8C
330
86
100
AcDbEntity
  8
SPECD
 62
     6
100
AcDbText
 10
4.215424032625506
 20
43.79289347717675
 30
0.0
 40
5.0
  1
DRAWING SHOWS 20mm JOINT.
  7
ROMANS
 72
     4
 11
63.73923355643501
 21
46.29289347717675
 31
0.0
100
AcDbText
  0
TEXT
  5
8D
330
86
100
AcDbEntity
  8
SPECD
 62
     6
100
AcDbText
 10
4.481432930145061
 20
8.212600757984517
 30
0.0
 40
5.0
  1
JOINT AND DIMS LAYERS.
  7
ROMANS
 72
     4
 11
52.33857578728794
 21
10.71260075798451
 31
0.0
100
AcDbText
  0
LINE
  5
8E
330
86
100
AcDbEntity
  8
SPECD
 62
     6
100
AcDbLine
 10
0.0000004097963711
 20
53.03369301694681
 30
0.0
 11
0.0000004097963711
 21
0.0000004313964723
 31
0.0
  0
LINE
  5
8F
330
86
100
AcDbEntity
  8
SPECD
 62
     6
100
AcDbLine
 10
202.4869505164367
 20
53.03369301694681
 30
0.0
 11
202.4869505164367
 21
0.0000004313964723
 31
0.0
  0
ENDBLK
  5
91
330
86
100
AcDbEntity
  8
0
 62
     1
100
AcDbBlockEnd
  0
ENDSEC
  0
SECTION
  2
ENTITIES
  0
DIMENSION
  5
2D
330
2
100
AcDbEntity
  8
DIMS
100
AcDbDimension
  2
*D5
 10
210.0
 20
-72.77331362369896
 30
0.0
 11
105.0
 21
-69.77331362369895
 31
0.0
 71
     5
 42
-1.0
  3
1-2
100
AcDbAlignedDimension
 13
0.0000000000000027
 23
-38.0
 33
0.0
 14
210.0
 24
-12.49999999999999
 34
0.0
100
AcDbRotatedDimension
  0
LINE
  5
3E
330
2
100
AcDbEntity
  8
ANCON-DSD
  6
Continuous
 62
     3
100
AcDbLine
 10
2.0
 20
-15.00000000000001
 30
0.0
 11
230.0
 21
-15.0
 31
0.0
  0
LINE
  5
40
330
2
100
AcDbEntity
  8
ANCON-DSD
  6
Continuous
 62
     3
100
AcDbLine
 10
2.0
 20
15.00000000000001
 30
0.0
 11
230.0
 21
15.00000000000001
 31
0.0
  0
DIMENSION
  5
41
330
2
100
AcDbEntity
  8
20MM-DIMS
 62
     1
100
AcDbDimension
  2
*D3
 10
179.9962777280847
 20
-59.84107725227959
 30
0.0
 11
89.99813886404236
 21
-56.84107725227959
 31
0.0
 71
     5
 42
-1.0
  3
1-2
100
AcDbAlignedDimension
 13
0.0000000000000027
 23
-38.0
 33
0.0
 14
179.9962777280847
 24
-8.999999999999829
 34
0.0
100
AcDbRotatedDimension
  0
LINE
  5
4F
330
2
100
AcDbEntity
  8
20MM-JOINT
  6
HIDDEN
 62
     3
100
AcDbLine
 10
0.0000000000000027
 20
-10.99999999999983
 30
0.0
 11
177.9962777280847
 21
-10.99999999999982
 31
0.0
  0
LINE
  5
52
330
2
100
AcDbEntity
  8
20MM-JOINT
  6
HIDDEN
 62
     3
100
AcDbLine
 10
0.0000000000000027
 20
11.00000000000017
 30
0.0
 11
177.9962777280847
 21
11.00000000000017
 31
0.0
  0
INSERT
  5
53
330
2
100
AcDbEntity
  8
ANCON-DSD
 62
     1
100
AcDbBlockReference
  2
*X1
 10
15407.05334707625
 20
45013.94618519586
 30
0.0
 41
-1.0
1001
ACAD
1000
HATCH
1002
{
1070
    16
1000
AR-CONC
1040
0.3
1040
0.0
1002
}
  0
LINE
  5
6C
330
2
100
AcDbEntity
  8
CONCRETE
  6
Continuous
 62
     2
100
AcDbLine
 10
-0.0000000000001141
 20
-125.0
 30
0.0
 11
250.0
 21
-125.0
 31
0.0
  0
LINE
  5
6E
330
2
100
AcDbEntity
  8
CONCRETE
  6
Continuous
 62
     2
100
AcDbLine
 10
-0.0000000000001141
 20
125.0
 30
0.0
 11
250.0
 21
125.0
 31
0.0
  0
DIMENSION
  5
6F
330
2
100
AcDbEntity
  8
DIMS
100
AcDbDimension
  2
*D4
 10
225.0
 20
-84.77331362369895
 30
0.0
 11
112.5
 21
-81.77331362369896
 31
0.0
 71
     5
 42
-1.0
  3
1-2
100
AcDbAlignedDimension
 13
0.0000000000000027
 23
-38.0
 33
0.0
 14
225.0
 24
-12.49999999999999
 34
0.0
100
AcDbRotatedDimension
  0
LINE
  5
7C
330
2
100
AcDbEntity
  8
ANCON-DSD
  6
HIDDEN
 62
     3
100
AcDbLine
 10
2.000000000000002
 20
-12.5
 30
0.0
 11
210.0
 21
-12.49999999999999
 31
0.0
  0
LINE
  5
7D
330
2
100
AcDbEntity
  8
ANCON-DSD
  6
HIDDEN
 62
     3
100
AcDbLine
 10
2.000000000000002
 20
12.5
 30
0.0
 11
210.0
 21
12.5
 31
0.0
  0
LINE
  5
7E
330
2
100
AcDbEntity
  8
ANCON-DSD
  6
CENTER2
 62
     1
100
AcDbLine
 10
-0.0000000000001141
 20
0.0000000000000028
 30
0.0
 11
234.0
 21
0.0000000000000028
 31
0.0
  0
TEXT
  5
80
330
2
100
AcDbEntity
  8
DIMS
 62
     1
100
AcDbText
 10
9.568193832461361
 20
184.1962678242651
 30
0.0
 40
5.0
  1
SPECIFICATION BY DESCRIPTION
  7
ROMANS
 72
     4
 11
69.21105097531849
 21
186.6962678242651
 31
0.0
100
AcDbText
  0
TEXT
  5
81
330
2
100
AcDbEntity
  8
DIMS
 62
     1
100
AcDbText
 10
9.424557222835098
 20
214.1307222887612
 30
0.0
 40
5.0
  1
SPECIFICATION BY PRODUCT
  7
ROMANS
 72
     4
 11
62.87693817521603
 21
216.6307222887612
 31
0.0
100
AcDbText
  0
LINE
  5
82
330
2
100
AcDbEntity
  8
20MM-JOINT
 62
     2
100
AcDbLine
 10
-19.99999999999997
 20
11.00000000000017
 30
0.0
 11
-19.99999999999999
 21
124.9999999999999
 31
0.0
  0
INSERT
  5
83
330
2
100
AcDbEntity
  8
20MM-JOINT
 62
     1
100
AcDbBlockReference
  2
*X1
 10
37072.55049834766
 20
29657.20883171042
 30
0.0
 41
-1.0
 50
327.4017962361148
1001
ACAD
1000
HATCH
1002
{
1070
    16
1000
AR-CONC
1040
0.3
1040
0.0
1002
}
  0
LINE
  5
84
330
2
100
AcDbEntity
  8
CONCRETE
100
AcDbLine
 10
0.000000000000053
 20
-124.9999999999999
 30
0.0
 11
0.0000000000000039
 21
125.0
 31
0.0
  0
DIMENSION
  5
92
330
2
100
AcDbEntity
  8
20MM-DIMS
100
AcDbDimension
  2
*D6
 10
-19.99999999999996
 20
-84.77331362369895
 30
0.0
 11
-120.0
 21
-81.77331362369896
 31
0.0
 71
     5
 42
-1.0
  3
1-2
100
AcDbAlignedDimension
 13
-220.0
 23
-8.999999999999772
 33
0.0
 14
-19.99999999999996
 24
-10.99999999999982
 34
0.0
100
AcDbRotatedDimension
  0
LINE
  5
9F
330
2
100
AcDbEntity
  8
20MM-JOINT
 62
     2
100
AcDbLine
 10
-19.99999999999994
 20
-125.0
 30
0.0
 11
-269.9999999999999
 21
-125.0
 31
0.0
  0
LINE
  5
A0
330
2
100
AcDbEntity
  8
20MM-JOINT
 62
     3
100
AcDbLine
 10
-217.9999999999999
 20
-10.99999999999982
 30
0.0
 11
0.0000000000000027
 21
-10.99999999999982
 31
0.0
  0
LINE
  5
A1
330
2
100
AcDbEntity
  8
20MM-JOINT
  6
CENTER2
 62
     1
100
AcDbLine
 10
-229.9999999999999
 20
0.0000000000001705
 30
0.0
 11
0.0000000000000027
 21
0.0000000000001705
 31
0.0
  0
LINE
  5
A2
330
2
100
AcDbEntity
  8
20MM-JOINT
 62
     3
100
AcDbLine
 10
-217.9999999999999
 20
11.00000000000017
 30
0.0
 11
0.0000000000000027
 21
11.00000000000017
 31
0.0
  0
LINE
  5
A3
330
2
100
AcDbEntity
  8
20MM-JOINT
 62
     3
100
AcDbLine
 10
-217.9999999999999
 20
11.00000000000017
 30
0.0
 11
-217.9999999999999
 21
-10.99999999999982
 31
0.0
  0
LINE
  5
A4
330
2
100
AcDbEntity
  8
20MM-JOINT
 62
     3
100
AcDbLine
 10
-217.9999999999999
 20
11.00000000000017
 30
0.0
 11
-219.9999999999999
 21
9.00000000000017
 31
0.0
  0
LINE
  5
A5
330
2
100
AcDbEntity
  8
20MM-JOINT
 62
     3
100
AcDbLine
 10
-220.0
 20
-8.999999999999772
 30
0.0
 11
-218.0
 21
-10.99999999999977
 31
0.0
  0
LINE
  5
A6
330
2
100
AcDbEntity
  8
20MM-JOINT
 62
     3
100
AcDbLine
 10
-219.9999999999999
 20
9.00000000000017
 30
0.0
 11
-220.0
 21
-8.999999999999772
 31
0.0
  0
LINE
  5
A7
330
2
100
AcDbEntity
  8
20MM-JOINT
 62
     2
100
AcDbLine
 10
-19.99999999999994
 20
-125.0
 30
0.0
 11
-19.99999999999996
 21
-10.99999999999982
 31
0.0
  0
DIMENSION
  5
A8
330
2
100
AcDbEntity
  8
20MM-DIMS
100
AcDbDimension
  2
*D7
 10
0.0000000000000359
 20
-84.77331362369895
 30
0.0
 11
-9.999999999999966
 21
-81.77331362369896
 31
0.0
 71
     5
 42
-1.0
  3
1-2
100
AcDbAlignedDimension
 13
-19.99999999999996
 23
-10.99999999999982
 33
0.0
 14
0.0000000000000359
 24
-38.0
 34
0.0
100
AcDbRotatedDimension
  0
LINE
  5
B5
330
2
100
AcDbEntity
  8
ANCON-DSD
100
AcDbLine
 10
2.000000000000002
 20
38.01812056130581
 30
0.0
 11
2.000000000000002
 21
-38.0
 31
0.0
  0
LINE
  5
B6
330
2
100
AcDbEntity
  8
ANCON-DSD
100
AcDbLine
 10
0.0000000000000027
 20
38.01812056130581
 30
0.0
 11
0.0000000000000027
 21
-38.0
 31
0.0
  0
DIMENSION
  5
B7
330
2
100
AcDbEntity
  8
DIMS
100
AcDbDimension
  2
*D2
 10
2.000000000000002
 20
-48.71360481256672
 30
0.0
 11
12.5
 21
-45.71360481256672
 31
0.0
 71
     5
 42
-1.0
  3
1-2
100
AcDbAlignedDimension
 13
0.0000000000000027
 23
-38.0
 33
0.0
 14
2.000000000000002
 24
-38.0
 34
0.0
100
AcDbRotatedDimension
  0
LINE
  5
C6
330
2
100
AcDbEntity
  8
ANCON-DSD
100
AcDbLine
 10
0.0000000000000027
 20
-38.0
 30
0.0
 11
2.000000000000002
 21
-38.0
 31
0.0
  0
LINE
  5
CB
330
2
100
AcDbEntity
  8
ANCON-DSD
100
AcDbLine
 10
0.0000000000000027
 20
38.0
 30
0.0
 11
2.000000000000002
 21
38.0
 31
0.0
  0
LINE
  5
CC
330
2
100
AcDbEntity
  8
ANCON-DSD
100
AcDbLine
 10
0.0000000000000027
 20
38.0
 30
0.0
 11
0.0000000000000027
 21
38.01812056130581
 31
0.0
  0
LINE
  5
CD
330
2
100
AcDbEntity
  8
20MM-JOINT
 62
     2
100
AcDbLine
 10
-19.99999999999999
 20
125.0
 30
0.0
 11
-269.9999999999999
 21
125.0
 31
0.0
  0
LINE
  5
CE
330
2
100
AcDbEntity
  8
20MM-JOINT
 62
     6
100
AcDbLine
 10
-203.6155975269847
 20
196.4084438620467
 30
0.0
 11
-28.23691983512216
 21
196.4084438620467
 31
0.0
  0
LINE
  5
CF
330
2
100
AcDbEntity
  8
20MM-JOINT
 62
     6
100
AcDbLine
 10
-203.6155975269846
 20
169.3809587869996
 30
0.0
 11
-28.23691983512219
 21
169.3809587869996
 31
0.0
  0
LINE
  5
D0
330
2
100
AcDbEntity
  8
20MM-JOINT
 62
     6
100
AcDbLine
 10
-203.6155975269846
 20
222.4792049210924
 30
0.0
 11
-28.23691983512219
 21
222.4792049210924
 31
0.0
  0
TEXT
  5
D1
330
2
100
AcDbEntity
  8
20MM-JOINT
 62
     6
100
AcDbText
 10
-148.8717728653228
 20
211.5724520214541
 30
0.0
 40
5.0
  1
DESIGN JOINT
  7
ROMANS
 72
     4
 11
-122.8003442938942
 21
214.0724520214541
 31
0.0
100
AcDbText
  0
LINE
  5
D2
330
2
100
AcDbEntity
  8
20MM-JOINT
 62
     6
100
AcDbLine
 10
-203.6155975269846
 20
222.4792049210924
 30
0.0
 11
-203.6155975269846
 21
169.3809587869996
 31
0.0
  0
LINE
  5
D3
330
2
100
AcDbEntity
  8
20MM-JOINT
 62
     6
100
AcDbLine
 10
-153.6155975269846
 20
222.4792049210924
 30
0.0
 11
-153.6155975269846
 21
169.3809587869996
 31
0.0
  0
TEXT
  5
D4
330
2
100
AcDbEntity
  8
20MM-JOINT
 62
     6
100
AcDbText
 10
-196.6348953197178
 20
180.4346111181934
 30
0.0
 40
5.0
  1
ESDQ15L
  7
ROMANS
 72
     4
 11
-179.7301334149559
 21
182.6965158800982
 31
0.0
100
AcDbText
  0
TEXT
  5
D5
330
2
100
AcDbEntity
  8
20MM-JOINT
 62
     6
100
AcDbText
 10
-197.7063238911464
 20
211.5724520214541
 30
0.0
 40
5.0
  1
DSD REF:
  7
ROMANS
 72
     4
 11
-179.7301334149559
 21
214.0724520214541
 31
0.0
100
AcDbText
  0
TEXT
  5
D6
330
2
100
AcDbEntity
  8
20MM-JOINT
 62
     6
100
AcDbText
 10
-133.3955823891323
 20
202.8805595731859
 30
0.0
 40
5.0
  1
WIDTH
  7
ROMANS
 72
     4
 11
-122.8003442938942
 21
205.3805595731859
 31
0.0
100
AcDbText
  0
LINE
  5
D7
330
2
100
AcDbEntity
  8
20MM-JOINT
 62
     6
100
AcDbLine
 10
-28.23691983512219
 20
222.4792049210924
 30
0.0
 11
-28.23691983512219
 21
169.3809587869996
 31
0.0
  0
LINE
  5
D8
330
2
100
AcDbEntity
  8
20MM-JOINT
 62
     6
100
AcDbLine
 10
-93.10750396992181
 20
222.4792049210924
 30
0.0
 11
-93.10750396992181
 21
169.3809587869996
 31
0.0
  0
TEXT
  5
D9
330
2
100
AcDbEntity
  8
20MM-JOINT
 62
     6
100
AcDbText
 10
-84.49203817686074
 20
202.8776327673574
 30
0.0
 40
5.0
  1
LOAD ( kN )
  7
ROMANS
 72
     4
 11
-59.73013341495598
 21
205.0204899102145
 31
0.0
100
AcDbText
  0
INSERT
  5
DA
330
2
100
AcDbEntity
  8
20MM-JOINT
 62
     1
100
AcDbBlockReference
  2
*X0
 10
10563.87477423076
 20
-14118.80678445735
 30
0.0
 41
-1.0
 50
327.4017962361148
1001
ACAD
1000
HATCH
1002
{
1070
    16
1000
AR-CONC
1040
0.3
1040
0.0
1002
}
  0
INSERT
  5
ED
330
2
100
AcDbEntity
  8
20MM-JOINT
 62
     1
100
AcDbBlockReference
  2
*X0
 10
14630.89201739332
 20
10040.98909938927
 30
0.0
 41
-1.0
 50
54.67191047779144
1001
ACAD
1000
HATCH
1002
{
1070
    16
1000
AR-CONC
1040
0.3
1040
0.0
1002
}
  0
LINE
  5
EE
330
2
100
AcDbEntity
  8
20MM-JOINT
 62
     1
100
AcDbLine
 10
-88.67308927939815
 20
82.11248645879601
 30
0.0
 11
-89.23741346999355
 21
81.5486178154423
 31
0.0
  0
LINE
  5
EF
330
2
100
AcDbEntity
  8
20MM-JOINT
 62
     1
100
AcDbLine
 10
-91.11850088308489
 20
81.5486178154423
 30
0.0
 11
-91.11850088308489
 21
82.11248645879601
 31
0.0
  0
LINE
  5
F0
330
2
100
AcDbEntity
  8
20MM-JOINT
 62
     1
100
AcDbLine
 10
-91.11850088308489
 20
82.11248645879601
 30
0.0
 11
-90.1779583061681
 21
83.9920522603465
 31
0.0
  0
LINE
  5
F1
330
2
100
AcDbEntity
  8
20MM-JOINT
 62
     1
100
AcDbLine
 10
-89.23741346999355
 20
81.5486178154423
 30
0.0
 11
-91.11850088308489
 21
81.5486178154423
 31
0.0
  0
LINE
  5
F2
330
2
100
AcDbEntity
  8
20MM-JOINT
 62
     1
100
AcDbLine
 10
-90.1779583061681
 20
83.9920522603465
 30
0.0
 11
-88.67308927939815
 21
82.11248645879601
 31
0.0
  0
LINE
  5
F3
330
2
100
AcDbEntity
  8
20MM-JOINT
 62
     1
100
AcDbLine
 10
-87.05881117523716
 20
99.07853152715517
 30
0.0
 11
-86.87070311170534
 21
97.76283574034767
 31
0.0
  0
LINE
  5
F4
330
2
100
AcDbEntity
  8
20MM-JOINT
 62
     1
100
AcDbLine
 10
-86.87070311170534
 20
97.76283574034767
 30
0.0
 11
-88.18746407494353
 21
97.5748786116369
 31
0.0
  0
LINE
  5
F5
330
2
100
AcDbEntity
  8
20MM-JOINT
 62
     1
100
AcDbLine
 10
-88.18746407494353
 20
97.5748786116369
 30
0.0
 11
-88.75179052479671
 21
98.32670438370138
 31
0.0
  0
LINE
  5
F6
330
2
100
AcDbEntity
  8
20MM-JOINT
 62
     1
100
AcDbLine
 10
-88.75179052479671
 20
98.32670438370138
 30
0.0
 11
-89.12800665186029
 21
99.6424001705089
 31
0.0
  0
LINE
  5
F7
330
2
100
AcDbEntity
  8
20MM-JOINT
 62
     1
100
AcDbLine
 10
-89.3161169746499
 20
99.83035729921965
 30
0.0
 11
-87.05881117523716
 21
99.07853152715517
 31
0.0
  0
CIRCLE
  5
F8
330
2
100
AcDbEntity
  8
20MM-JOINT
 62
     1
100
AcDbCircle
 10
-68.33168999015892
 20
63.90264068646167
 30
0.0
 40
0.2659198672028824
  0
LINE
  5
F9
330
2
100
AcDbEntity
  8
20MM-JOINT
 62
     1
100
AcDbLine
 10
-69.766779854342
 20
80.17332627746203
 30
0.0
 11
-70.68380960705245
 21
79.684638103547
 31
0.0
  0
LINE
  5
FA
330
2
100
AcDbEntity
  8
20MM-JOINT
 62
     1
100
AcDbLine
 10
-70.68380960705245
 20
79.684638103547
 30
0.0
 11
-71.35629732651624
 21
80.78418405422519
 31
0.0
  0
LINE
  5
FB
330
2
100
AcDbEntity
  8
20MM-JOINT
 62
     1
100
AcDbLine
 10
-71.35629732651624
 20
81.70047350866207
 30
0.0
 11
-69.9501858048841
 21
81.70047350866207
 31
0.0
  0
LINE
  5
FC
330
2
100
AcDbEntity
  8
20MM-JOINT
 62
     1
100
AcDbLine
 10
-71.35629732651624
 20
80.78418405422519
 30
0.0
 11
-71.35629732651624
 21
81.70047350866207
 31
0.0
  0
LINE
  5
FD
330
2
100
AcDbEntity
  8
20MM-JOINT
 62
     1
100
AcDbLine
 10
-69.9501858048841
 20
81.70047350866207
 30
0.0
 11
-69.766779854342
 21
80.17332627746203
 31
0.0
  0
CIRCLE
  5
FE
330
2
100
AcDbEntity
  8
20MM-JOINT
 62
     1
100
AcDbCircle
 10
-51.38603650482038
 20
56.22206533102366
 30
0.0
 40
0.3762183863213835
  0
LINE
  5
FF
330
2
100
AcDbEntity
  8
20MM-JOINT
 62
     1
100
AcDbLine
 10
-55.98848823856117
 20
74.3056415276925
 30
0.0
 11
-55.49940646963945
 21
73.69478235628321
 31
0.0
  0
LINE
  5
100
330
2
100
AcDbEntity
  8
20MM-JOINT
 62
     1
100
AcDbLine
 10
-55.49940646963945
 20
73.69478235628321
 30
0.0
 11
-55.74394850288611
 21
73.1450100782672
 31
0.0
  0
LINE
  5
101
330
2
100
AcDbEntity
  8
20MM-JOINT
 62
     1
100
AcDbLine
 10
-56.29416635451237
 20
71.86220623670158
 30
0.0
 11
-56.66097825559656
 21
72.96175218737983
 31
0.0
  0
LINE
  5
102
330
2
100
AcDbEntity
  8
20MM-JOINT
 62
     1
100
AcDbLine
 10
-55.74394850288611
 20
73.1450100782672
 30
0.0
 11
-56.29416635451237
 21
71.86220623670158
 31
0.0
  0
LINE
  5
103
330
2
100
AcDbEntity
  8
20MM-JOINT
 62
     1
100
AcDbLine
 10
-56.66097825559656
 20
72.96175218737983
 30
0.0
 11
-55.98848823856117
 21
74.3056415276925
 31
0.0
  0
LINE
  5
104
330
2
100
AcDbEntity
  8
20MM-JOINT
 62
     1
100
AcDbLine
 10
-66.19291841038394
 20
97.1739872413184
 30
0.0
 11
-67.50967937362209
 21
96.23420434054317
 31
0.0
  0
LINE
  5
105
330
2
100
AcDbEntity
  8
20MM-JOINT
 62
     1
100
AcDbLine
 10
-69.20265646392387
 20
96.61011722657542
 30
0.0
 11
-68.45022195053887
 21
96.79807435528619
 31
0.0
  0
LINE
  5
106
330
2
100
AcDbEntity
  8
20MM-JOINT
 62
     1
100
AcDbLine
 10
-68.82643807760247
 20
95.29442143976792
 30
0.0
 11
-69.20265646392387
 21
96.61011722657542
 31
0.0
  0
LINE
  5
107
330
2
100
AcDbEntity
  8
20MM-JOINT
 62
     1
100
AcDbLine
 10
-67.50967937362209
 20
96.23420434054317
 30
0.0
 11
-68.82643807760247
 21
95.29442143976792
 31
0.0
  0
LINE
  5
108
330
2
100
AcDbEntity
  8
20MM-JOINT
 62
     1
100
AcDbLine
 10
-68.07400356421751
 20
97.54990012735062
 30
0.0
 11
-66.38102647391573
 21
99.24150880019039
 31
0.0
  0
LINE
  5
109
330
2
100
AcDbEntity
  8
20MM-JOINT
 62
     1
100
AcDbLine
 10
-68.45022195053887
 20
96.79807435528619
 30
0.0
 11
-68.07400356421751
 21
97.54990012735062
 31
0.0
  0
LINE
  5
10A
330
2
100
AcDbEntity
  8
20MM-JOINT
 62
     1
100
AcDbLine
 10
-66.38102647391573
 20
99.24150880019039
 30
0.0
 11
-66.19291841038394
 21
98.86559591415812
 31
0.0
  0
LINE
  5
10B
330
2
100
AcDbEntity
  8
20MM-JOINT
 62
     1
100
AcDbLine
 10
-66.19291841038394
 20
98.86559591415812
 30
0.0
 11
-66.19291841038394
 21
97.1739872413184
 31
0.0
  0
TEXT
  5
10C
330
2
100
AcDbEntity
  8
20MM-JOINT
 62
     6
100
AcDbText
 10
-132.5872762720988
 20
180.1965158800982
 30
0.0
 40
5.0
  1
20 MM
  7
ROMANS
 72
     4
 11
-119.7301334149559
 21
182.6965158800982
 31
0.0
100
AcDbText
  0
TEXT
  5
10D
330
2
100
AcDbEntity
  8
20MM-JOINT
 62
     6
100
AcDbText
 10
-68.42060960543218
 20
180.1965158800982
 30
0.0
 40
5.0
  1
11.2
  7
ROMANS
 72
     4
 11
-59.73013341495598
 21
182.6965158800982
 31
0.0
100
AcDbText
  0
INSERT
  5
10E
330
2
100
AcDbEntity
  8
ANCON-DSD
 62
     1
100
AcDbBlockReference
  2
*X0
 10
16658.39032015216
 20
-6147.402386290828
 30
0.0
 41
-1.0
1001
ACAD
1000
HATCH
1002
{
1070
    16
1000
AR-CONC
1040
0.3
1040
0.0
1002
}
  0
INSERT
  5
10F
330
2
100
AcDbEntity
  8
ANCON-DSD
 62
     1
100
AcDbBlockReference
  2
*X0
 10
7068.773336716884
 20
16397.56628781302
 30
0.0
 41
-1.0
 50
87.27011424167661
1001
ACAD
1000
HATCH
1002
{
1070
    16
1000
AR-CONC
1040
0.3
1040
0.0
1002
}
  0
LINE
  5
110
330
2
100
AcDbEntity
  8
ANCON-DSD
 62
     1
100
AcDbLine
 10
24.95854032138863
 20
84.34965724921324
 30
0.0
 11
24.59172842030445
 21
85.44920319989145
 31
0.0
  0
LINE
  5
111
330
2
100
AcDbEntity
  8
ANCON-DSD
 62
     1
100
AcDbLine
 10
25.5087581730149
 20
85.63246109077883
 30
0.0
 11
24.95854032138863
 21
84.34965724921324
 31
0.0
  0
LINE
  5
112
330
2
100
AcDbEntity
  8
ANCON-DSD
 62
     1
100
AcDbLine
 10
25.75330020626156
 20
86.18223336879488
 30
0.0
 11
25.5087581730149
 21
85.63246109077883
 31
0.0
  0
LINE
  5
113
330
2
100
AcDbEntity
  8
ANCON-DSD
 62
     1
100
AcDbLine
 10
25.26421843733985
 20
86.79309254020413
 30
0.0
 11
25.75330020626156
 21
86.18223336879488
 31
0.0
  0
LINE
  5
114
330
2
100
AcDbEntity
  8
ANCON-DSD
 62
     1
100
AcDbLine
 10
24.59172842030445
 20
85.44920319989145
 30
0.0
 11
25.26421843733985
 21
86.79309254020413
 31
0.0
  0
LINE
  5
115
330
2
100
AcDbEntity
  8
ANCON-DSD
 62
     1
100
AcDbLine
 10
31.07207277198216
 20
77.93563943603146
 30
0.0
 11
30.39958505251837
 21
79.03518538670965
 31
0.0
  0
LINE
  5
116
330
2
100
AcDbEntity
  8
ANCON-DSD
 62
     1
100
AcDbLine
 10
31.98910252469261
 20
78.42432760994651
 30
0.0
 11
31.07207277198216
 21
77.93563943603146
 31
0.0
  0
LINE
  5
117
330
2
100
AcDbEntity
  8
ANCON-DSD
 62
     1
100
AcDbLine
 10
31.80569657415052
 20
79.95147484114657
 30
0.0
 11
31.98910252469261
 21
78.42432760994651
 31
0.0
  0
LINE
  5
118
330
2
100
AcDbEntity
  8
ANCON-DSD
 62
     1
100
AcDbLine
 10
30.39958505251837
 20
79.95147484114657
 30
0.0
 11
31.80569657415052
 21
79.95147484114657
 31
0.0
  0
LINE
  5
119
330
2
100
AcDbEntity
  8
ANCON-DSD
 62
     1
100
AcDbLine
 10
30.39958505251837
 20
79.03518538670965
 30
0.0
 11
30.39958505251837
 21
79.95147484114657
 31
0.0
  0
CIRCLE
  5
11A
330
2
100
AcDbEntity
  8
ANCON-DSD
 62
     1
100
AcDbCircle
 10
55.66492711644196
 20
75.00116921034585
 30
0.0
 40
0.2659198672028824
  0
LINE
  5
11B
330
2
100
AcDbEntity
  8
ANCON-DSD
 62
     1
100
AcDbLine
 10
48.51679870791675
 20
85.71469221354426
 30
0.0
 11
48.51679870791675
 21
86.09060512067424
 31
0.0
  0
LINE
  5
11C
330
2
100
AcDbEntity
  8
ANCON-DSD
 62
     1
100
AcDbLine
 10
49.26923272877437
 20
85.71469221354426
 30
0.0
 11
48.51679870791675
 21
85.71469221354426
 31
0.0
  0
LINE
  5
11D
330
2
100
AcDbEntity
  8
ANCON-DSD
 62
     1
100
AcDbLine
 10
49.26923272877437
 20
86.27856157423922
 30
0.0
 11
49.26923272877437
 21
85.71469221354426
 31
0.0
  0
LINE
  5
11E
330
2
100
AcDbEntity
  8
ANCON-DSD
 62
     1
100
AcDbLine
 10
48.51679870791675
 20
86.27856157423922
 30
0.0
 11
49.26923272877437
 21
86.27856157423922
 31
0.0
  0
CIRCLE
  5
11F
330
2
100
AcDbEntity
  8
ANCON-DSD
 62
     1
100
AcDbCircle
 10
70.52551157986757
 20
72.18182050802011
 30
0.0
 40
0.3762183863213835
  0
LINE
  5
120
330
2
100
AcDbEntity
  8
ANCON-DSD
 62
     1
100
AcDbLine
 10
28.01295592547169
 20
104.3223894061428
 30
0.0
 11
28.95349850238846
 21
106.2019552076933
 31
0.0
  0
LINE
  5
121
330
2
100
AcDbEntity
  8
ANCON-DSD
 62
     1
100
AcDbLine
 10
28.01295592547169
 20
103.7585207627891
 30
0.0
 11
28.01295592547169
 21
104.3223894061428
 31
0.0
  0
LINE
  5
122
330
2
100
AcDbEntity
  8
ANCON-DSD
 62
     1
100
AcDbLine
 10
29.89404333856304
 20
103.7585207627891
 30
0.0
 11
28.01295592547169
 21
103.7585207627891
 31
0.0
  0
LINE
  5
123
330
2
100
AcDbEntity
  8
ANCON-DSD
 62
     1
100
AcDbLine
 10
30.45836752915842
 20
104.3223894061428
 30
0.0
 11
29.89404333856304
 21
103.7585207627891
 31
0.0
  0
LINE
  5
124
330
2
100
AcDbEntity
  8
ANCON-DSD
 62
     1
100
AcDbLine
 10
28.95349850238846
 20
106.2019552076933
 30
0.0
 11
30.45836752915842
 21
104.3223894061428
 31
0.0
  0
LINE
  5
125
330
2
100
AcDbEntity
  8
ANCON-DSD
 62
     1
100
AcDbLine
 10
38.17082298579782
 20
103.3826078767569
 30
0.0
 11
38.54704137211921
 21
104.1344336488214
 31
0.0
  0
LINE
  5
126
330
2
100
AcDbEntity
  8
ANCON-DSD
 62
     1
100
AcDbLine
 10
37.41838847241284
 20
103.1946507480461
 30
0.0
 11
38.17082298579782
 21
103.3826078767569
 31
0.0
  0
LINE
  5
127
330
2
100
AcDbEntity
  8
ANCON-DSD
 62
     1
100
AcDbLine
 10
37.79460685873422
 20
101.8789549612386
 30
0.0
 11
37.41838847241284
 21
103.1946507480461
 31
0.0
  0
LINE
  5
128
330
2
100
AcDbEntity
  8
ANCON-DSD
 62
     1
100
AcDbLine
 10
39.11136556271459
 20
102.8187378620138
 30
0.0
 11
37.79460685873422
 21
101.8789549612386
 31
0.0
  0
LINE
  5
129
330
2
100
AcDbEntity
  8
ANCON-DSD
 62
     1
100
AcDbLine
 10
40.42812652595276
 20
103.7585207627891
 30
0.0
 11
39.11136556271459
 21
102.8187378620138
 31
0.0
  0
LINE
  5
12A
330
2
100
AcDbEntity
  8
ANCON-DSD
 62
     1
100
AcDbLine
 10
40.42812652595276
 20
105.4501294356289
 30
0.0
 11
40.42812652595276
 21
103.7585207627891
 31
0.0
  0
LINE
  5
12B
330
2
100
AcDbEntity
  8
ANCON-DSD
 62
     1
100
AcDbLine
 10
40.24001846242096
 20
105.8260423216611
 30
0.0
 11
40.42812652595276
 21
105.4501294356289
 31
0.0
  0
LINE
  5
12C
330
2
100
AcDbEntity
  8
ANCON-DSD
 62
     1
100
AcDbLine
 10
38.54704137211921
 20
104.1344336488214
 30
0.0
 11
40.24001846242096
 21
105.8260423216611
 31
0.0
  0
CIRCLE
  5
12D
330
2
100
AcDbEntity
  8
ANCON-DSD
 62
     1
100
AcDbCircle
 10
46.071386505969
 20
98.11982335813768
 30
0.0
 40
0.7977544665882306
  0
LINE
  5
12E
330
2
100
AcDbEntity
  8
ANCON-DSD
 62
     1
100
AcDbLine
 10
61.87251354631139
 20
88.53403996445299
 30
0.0
 11
61.3081870964582
 21
89.28586573651747
 31
0.0
  0
LINE
  5
12F
330
2
100
AcDbEntity
  8
ANCON-DSD
 62
     1
100
AcDbLine
 10
60.74386064660502
 20
90.78951865203574
 30
0.0
 11
63.00116644601776
 21
90.03769287997124
 31
0.0
  0
LINE
  5
130
330
2
100
AcDbEntity
  8
ANCON-DSD
 62
     1
100
AcDbLine
 10
61.3081870964582
 20
89.28586573651747
 30
0.0
 11
60.93197096939462
 21
90.60156152332497
 31
0.0
  0
LINE
  5
131
330
2
100
AcDbEntity
  8
ANCON-DSD
 62
     1
100
AcDbLine
 10
63.18927450954955
 20
88.72199709316374
 30
0.0
 11
61.87251354631139
 21
88.53403996445299
 31
0.0
  0
LINE
  5
132
330
2
100
AcDbEntity
  8
ANCON-DSD
 62
     1
100
AcDbLine
 10
63.00116644601776
 20
90.03769287997124
 30
0.0
 11
63.18927450954955
 21
88.72199709316374
 31
0.0
  0
TEXT
  5
133
330
2
100
AcDbEntity
  8
20MM-JOINT
 62
     6
100
AcDbText
 10
-87.58727627209884
 20
211.628565839881
 30
0.0
 40
5.0
  1
SERVICEABILITY
  7
ROMANS
 72
     4
 11
-59.73013341495598
 21
214.128565839881
 31
0.0
100
AcDbText
  0
LINE
  5
134
330
2
100
AcDbEntity
  8
20MM-JOINT
  6
HIDDEN
 62
     3
100
AcDbLine
 10
177.9962777280847
 20
11.00000000000017
 30
0.0
 11
179.9962777280847
 21
9.00000000000017
 31
0.0
  0
LINE
  5
135
330
2
100
AcDbEntity
  8
20MM-JOINT
  6
HIDDEN
 62
     3
100
AcDbLine
 10
177.9962777280847
 20
11.00000000000017
 30
0.0
 11
177.9962777280847
 21
-10.99999999999982
 31
0.0
  0
LINE
  5
136
330
2
100
AcDbEntity
  8
20MM-JOINT
  6
HIDDEN
 62
     3
100
AcDbLine
 10
177.9962777280847
 20
-10.99999999999982
 30
0.0
 11
179.9962777280847
 21
-8.999999999999829
 31
0.0
  0
LINE
  5
137
330
2
100
AcDbEntity
  8
20MM-JOINT
  6
HIDDEN
 62
     3
100
AcDbLine
 10
179.9962777280847
 20
9.00000000000017
 30
0.0
 11
179.9962777280847
 21
-8.999999999999829
 31
0.0
  0
LINE
  5
138
330
2
100
AcDbEntity
  8
20MM-JOINT
  6
HIDDEN
 62
     3
100
AcDbLine
 10
179.9962777280847
 20
7.000000000000113
 30
0.0
 11
179.9962777280847
 21
-6.999999999999886
 31
0.0
  0
LINE
  5
139
330
2
100
AcDbEntity
  8
ANCON-DSD
  6
Continuous
 62
     3
100
AcDbLine
 10
230.0
 20
-15.0
 30
0.0
 11
230.0
 21
15.00000000000001
 31
0.0
  0
LINE
  5
13A
330
2
100
AcDbEntity
  8
ANCON-DSD
  6
HIDDEN
 62
     3
100
AcDbLine
 10
210.0
 20
-12.49999999999999
 30
0.0
 11
210.0
 21
12.5
 31
0.0
  0
LINE
  5
13B
330
2
100
AcDbEntity
  8
ANCON-DSD
  6
Continuous
 62
     3
100
AcDbLine
 10
225.0
 20
-15.0
 30
0.0
 11
225.0
 21
15.00000000000001
 31
0.0
  0
LINE
  5
13C
330
2
100
AcDbEntity
  8
SPECD
 62
     6
100
AcDbLine
 10
136.9969295137479
 20
193.4013187375109
 30
0.0
 11
339.4838796203883
 21
193.4013187375109
 31
0.0
  0
LINE
  5
13D
330
2
100
AcDbEntity
  8
SPECD
 62
     6
100
AcDbLine
 10
136.9969295137479
 20
140.3676261519606
 30
0.0
 11
339.4838796203883
 21
140.3676261519606
 31
0.0
  0
TEXT
  5
13E
330
2
100
AcDbEntity
  8
SPECD
 62
     6
100
AcDbText
 10
141.0806102425394
 20
154.1056017483514
 30
0.0
 40
5.0
  1
AND CAPABLE OF TRANSFERRING A SERVICEABILITY
  7
ROMANS
 72
     4
 11
238.4615626234917
 21
156.6056017483514
 31
0.0
100
AcDbText
  0
TEXT
  5
13F
330
2
100
AcDbEntity
  8
SPECD
 62
     6
100
AcDbText
 10
140.6261750725893
 20
164.1546591622805
 30
0.0
 40
5.0
  1
SUITABLE FOR A DESIGN JOINT WIDTH OF ?? MM
  7
ROMANS
 72
     4
 11
235.5071274535417
 21
166.6546591622805
 31
0.0
100
AcDbText
  0
TEXT
  5
140
330
2
100
AcDbEntity
  8
SPECD
 62
     6
100
AcDbText
 10
140.5674783125317
 20
174.0558068719503
 30
0.0
 40
5.0
  1
COMPRISING SLEEVE AND DOWEL COMPONENT
  7
ROMANS
 72
     4
 11
228.5436687887222
 21
176.5558068719503
 31
0.0
100
AcDbText
  0
TEXT
  5
141
330
2
100
AcDbEntity
  8
SPECD
 62
     6
100
AcDbText
 10
141.2886627185874
 20
184.1605191977409
 30
0.0
 40
5.0
  1
TWO PART STAINLESS STEEL SHEAR CONNECTOR
  7
ROMANS
 72
     4
 11
233.9077103376352
 21
186.6605191977409
 31
0.0
100
AcDbText
  0
TEXT
  5
142
330
2
100
AcDbEntity
  8
SPECD
 62
     6
100
AcDbText
 10
142.2663909988825
 20
144.0706765833892
 30
0.0
 40
5.0
  1
LOAD OF ??? kN
  7
ROMANS
 72
     4
 11
174.8854386179302
 21
146.5706765833892
 31
0.0
100
AcDbText
  0
LINE
  5
143
330
2
100
AcDbEntity
  8
SPECD
 62
     6
100
AcDbLine
 10
136.9969295137479
 20
193.4013187375109
 30
0.0
 11
136.9969295137479
 21
140.3676261519606
 31
0.0
  0
LINE
  5
144
330
2
100
AcDbEntity
  8
SPECP
 62
     6
100
AcDbLine
 10
136.9969295137479
 20
210.8498571126034
 30
0.0
 11
204.5867804365098
 21
210.8498571126035
 31
0.0
  0
LINE
  5
146
330
2
100
AcDbEntity
  8
SPECP
 62
     6
100
AcDbLine
 10
136.9969295137479
 20
222.7678324046048
 30
0.0
 11
204.5867804365098
 21
222.7678324046048
 31
0.0
  0
TEXT
  5
147
330
2
100
AcDbEntity
  8
SPECP
 62
     6
100
AcDbText
 10
141.7291344252352
 20
214.1307222887612
 30
0.0
 40
5.0
  1
STAIFIX ESD ??
  7
ROMANS
 72
     4
 11
171.0148487109495
 21
216.6307222887612
 31
0.0
100
AcDbText
  0
LINE
  5
148
330
2
100
AcDbEntity
  8
SPECP
 62
     6
100
AcDbLine
 10
136.9969295137479
 20
222.7678324046048
 30
0.0
 11
136.9969295137479
 21
210.8498571126034
 31
0.0
  0
LINE
  5
149
330
2
100
AcDbEntity
  8
SPECP
 62
     6
100
AcDbLine
 10
204.5867804365098
 20
222.7678324046048
 30
0.0
 11
204.5867804365098
 21
210.8498571126034
 31
0.0
  0
LINE
  5
14A
330
2
100
AcDbEntity
  8
SPECD
 62
     6
100
AcDbLine
 10
339.4838796203883
 20
193.4013187375109
 30
0.0
 11
339.4838796203883
 21
140.3676261519606
 31
0.0
  0
ENDSEC
  0
SECTION
  2
OBJECTS
  0
DICTIONARY
  5
26
330
0
100
AcDbDictionary
281
     1
  3
ACAD_GROUP
350
22
  3
ACAD_LAYOUT
350
14E
  3
ACAD_MLINESTYLE
350
23
  3
ACAD_PLOTSETTINGS
350
14F
  3
ACAD_PLOTSTYLENAME
350
14C
  0
DICTIONARY
  5
3
330
2
100
AcDbDictionary
280
     1
281
     1
  3
ACAD_LAYOUTSELFREF
360
1B3
  0
DICTIONARY
  5
B
330
A
100
AcDbDictionary
280
     1
281
     1
  3
ACAD_LAYOUTSELFREF
360
1B4
  0
DICTIONARY
  5
22
102
{ACAD_REACTORS
330
26
102
}
330
26
100
AcDbDictionary
281
     1
  0
DICTIONARY
  5
14E
102
{ACAD_REACTORS
330
26
102
}
330
26
100
AcDbDictionary
281
     1
  3
Layout1
350
151
  3
Model
350
150
  0
DICTIONARY
  5
23
102
{ACAD_REACTORS
330
26
102
}
330
26
100
AcDbDictionary
281
     1
  3
Standard
350
29
  0
DICTIONARY
  5
14F
102
{ACAD_REACTORS
330
26
102
}
330
26
100
AcDbDictionary
281
     1
  0
ACDBDICTIONARYWDFLT
  5
14C
102
{ACAD_REACTORS
330
26
102
}
330
26
100
AcDbDictionary
281
     1
  3
Normal
350
14D
100
AcDbDictionaryWithDefault
340
14D
  0
XRECORD
  5
1B3
102
{ACAD_REACTORS
330
3
102
}
330
3
100
AcDbXrecord
280
     1
340
2
  0
XRECORD
  5
1B4
102
{ACAD_REACTORS
330
B
102
}
330
B
100
AcDbXrecord
280
     1
340
A
  0
LAYOUT
  5
151
102
{ACAD_REACTORS
330
14E
102
}
330
14E
100
AcDbPlotSettings
  1

  2
None
  4

  6

 40
0.0
 41
0.0
 42
0.0
 43
0.0
 44
0.0
 45
0.0
 46
0.0
 47
0.0
 48
0.0
 49
0.0
140
0.0
141
0.0
142
1.0
143
1.0
 70
   688
 72
     0
 73
     0
 74
     5
  7
Std pen settings.ctb
 75
    16
147
1.0
148
0.0
149
0.0
100
AcDbLayout
  1
Layout1
 70
     1
 71
     1
 10
-0.1979161059762549
 20
-0.1979166691697489
 11
16.34375024029589
 21
11.49541603298637
 12
0.0
 22
0.0
 32
0.0
 14
1.614583349603368
 24
1.129749872553066
 34
0.0
 15
14.5312501464303
 25
10.1677488529776
 35
0.0
146
0.0
 13
0.0
 23
0.0
 33
0.0
 16
1.0
 26
0.0
 36
0.0
 17
0.0
 27
1.0
 37
0.0
 76
     0
330
A
  0
LAYOUT
  5
150
102
{ACAD_REACTORS
330
14E
102
}
330
14E
100
AcDbPlotSettings
  1

  2
None
  4

  6

 40
0.0
 41
0.0
 42
0.0
 43
0.0
 44
0.0
 45
0.0
 46
0.0
 47
0.0
 48
0.0
 49
0.0
140
0.0
141
0.0
142
1.0
143
1.0
 70
  1712
 72
     0
 73
     0
 74
     0
  7
Std pen settings.ctb
 75
     0
147
1.0
148
0.0
149
0.0
100
AcDbLayout
  1
Model
 70
     1
 71
     0
 10
0.0
 20
0.0
 11
12.0
 21
9.0
 12
0.0
 22
0.0
 32
0.0
 14
0.0
 24
0.0
 34
0.0
 15
0.0
 25
0.0
 35
0.0
146
0.0
 13
0.0
 23
0.0
 33
0.0
 16
1.0
 26
0.0
 36
0.0
 17
0.0
 27
1.0
 37
0.0
 76
     0
330
2
  0
MLINESTYLE
  5
29
102
{ACAD_REACTORS
330
23
102
}
330
23
100
AcDbMlineStyle
  2
STANDARD
 70
     0
  3

 62
   256
 51
90.0
 52
90.0
 71
     2
 49
0.5
 62
   256
  6
BYLAYER
 49
-0.5
 62
   256
  6
BYLAYER
  0
ACDBPLACEHOLDER
  5
14D
102
{ACAD_REACTORS
330
14C
102
}
330
14C
  0
ENDSEC
  0
EOF
